#TITLE:Second Heaven;
#SUBTITLE:Expi3nze;
#ARTIST:Ryu;
#TITLETRANSLIT:;
#SUBTITLETRANSLIT:;
#ARTISTTRANSLIT:;
#CREDIT:;
#BANNER:bn.png;
#BACKGROUND:bg.png;
#LYRICSPATH:;
#CDTITLE:;
#MUSIC:Second Heaven.mp3;
#OFFSET:-0.520;
#SAMPLESTART:46.426;
#SAMPLELENGTH:25.772;
#SELECTABLE:YES;
#BPMS:0.000=149.003,2.000=148.995,3.000=149.003,5.000=148.995,6.000=149.003,7.000=148.995,8.000=149.003,10.000=148.995,11.000=149.003,12.000=148.995,13.000=149.003,15.000=148.995,16.000=149.003,17.000=148.995,18.000=149.003,20.000=148.995,21.000=149.003,23.000=148.995,24.000=149.003,25.000=148.995,26.000=149.003,28.000=148.995,29.000=149.003,30.000=148.995,31.000=149.003,33.000=148.995,34.000=149.003,35.000=148.995,36.000=149.003,38.000=148.995,39.000=149.003,41.000=148.995,42.000=74.502,43.000=74.499,46.000=74.502,47.000=74.499,51.000=74.502,52.000=74.499,55.000=74.502,56.000=74.499,60.000=74.502,61.000=74.499,64.000=74.502,65.000=74.499,69.000=74.502,70.000=74.499,73.000=74.502,74.000=74.499,78.000=149.003,80.000=148.995,81.000=149.003,83.000=148.995,84.000=149.003,85.000=148.995,86.000=149.003,88.000=148.995,89.000=149.003,90.000=148.995,91.000=149.003,93.000=148.995,94.000=149.003,95.000=148.995,96.000=149.003,98.000=148.995,99.000=149.003,101.000=148.995,102.000=149.003,103.000=148.995,104.000=149.003,106.000=148.995,107.000=149.003,108.000=148.995,109.000=149.003,111.000=148.995,112.000=149.003,113.000=148.995,114.000=149.003,116.000=148.995,117.000=149.003,119.000=148.995,120.000=149.003,121.000=148.995,122.000=149.003,124.000=148.995,125.000=149.003,126.000=148.995,127.000=149.003,129.000=148.995,130.000=149.003,131.000=148.995,132.000=149.003,134.000=148.995,135.000=149.003,137.000=148.995,138.000=149.003,139.000=148.995,140.000=149.003,142.000=148.995,143.000=149.003,144.000=148.995,145.000=149.003,147.000=148.995,148.000=149.003,149.000=148.995,150.000=149.003,152.000=148.995,153.000=149.003,155.000=148.995,156.000=149.003,157.000=148.995,158.000=149.003,160.000=148.995,161.000=149.003,162.000=148.995,163.000=149.003,165.000=148.995,166.000=149.003,167.000=148.995,168.000=149.003,170.000=148.995,171.000=149.003,173.000=148.995,174.000=149.003,175.000=148.995,176.000=149.003,178.000=148.995,179.000=149.003,180.000=148.995,181.000=149.003,183.000=148.995,184.000=149.003,185.000=148.995,186.000=149.003,188.000=148.995,189.000=149.003,190.000=74.502,191.000=74.499,194.000=74.502,195.000=74.499,199.000=74.502,200.000=74.499,202.000=149.003,204.000=148.995,205.000=149.003,207.000=148.995,208.000=149.003,209.000=148.995,210.000=149.003,212.000=148.995,213.000=149.003,214.000=148.995,215.000=149.003,217.000=148.995,218.000=149.003,219.000=148.995,220.000=149.003,222.000=148.995,223.000=149.003,225.000=148.995,226.000=149.003,227.000=148.995,228.000=149.003,230.000=148.995,231.000=149.003,232.000=148.995,233.000=149.003,235.000=148.995,236.000=149.003,237.000=148.995,238.000=149.003,240.000=148.995,241.000=149.003,243.000=148.995,244.000=149.003,245.000=148.995,246.000=149.003,248.000=148.995,249.000=149.003;
#STOPS:;
#BGCHANGES:;
// cache tags:
#FIRSTBEAT:1.500;
#LASTBEAT:241.000;
#SONGFILENAME:Songs/Super Dancer Online/Second Heaven-(Ryu)/Second Heaven.sm;
#HASMUSIC:1;
#HASBANNER:1;
#MUSICLENGTH:120.549;
// end cache tags

//---------------dance-single - ----------------
#NOTES:
     dance-single:
     :
     Hard:
     12:
     0.975,1.000,1.000,0.257,0.784,605.000,175.000,31.000,0.000,25.000:
0000
0000
0000
0002
1013
1010
0000
0000
,
0000
0000
0000
0002
1103
0010
1000
0010
,
1000
0000
0010
0010
1000
0000
0010
0010
1000
0000
0010
0000
1100
0000
0110
0000
,
0001
0000
1010
0010
0001
0000
1001
0000
1001
0000
0010
0000
1000
0000
0010
0000
,
1000
0000
0010
0010
1000
0000
0010
0010
1000
0000
0010
0000
1001
0000
0011
0000
,
0100
0000
1001
0100
0010
0000
1200
0000
1301
0000
1001
0000
0000
0000
0010
0000
,
0000
0010
0000
0210
1301
1001
0000
0010
,
0000
0100
0000
0120
1031
0010
0000
0210
,
1301
0000
0010
0000
0000
0000
0210
0000
1301
0000
1001
0000
0100
1000
0011
0100
,
0010
1000
0101
0010
1000
0001
0100
0001
1020
0000
0000
0000
0000
0000
0000
0000
,
0000
0000
0000
0000
0000
0000
0000
0030
,
0100
0001
0010
0001
1000
0010
0100
0001
0100
1000
0010
0100
0010
0001
0010
1000
,
0100
0010
0100
0001
1000
0100
0010
0001
0100
0010
0100
1000
0010
0010
0100
0001
,
1010
0100
0010
0001
1010
0100
1010
0001
1000
0100
1001
0100
0011
0100
0001
0010
,
1001
0100
0010
0001
1010
0100
1010
0001
0010
0001
1010
0100
1010
0001
0010
0100
,
0010
0100
0010
0001
0100
1000
0100
0010
0001
0100
0010
0100
0011
0100
1010
0100
,
0010
0100
0010
0001
0100
1000
0100
0010
0101
1000
0010
0100
1001
0010
0100
0010
,
1001
0100
0010
0001
0100
1000
0100
0010
1001
0100
0010
0100
0011
0100
1010
0100
,
1001
0100
0010
0001
0110
1000
0100
0010
1101
1000
0110
0001
1110
0000
1000
0000
,
0220
0000
0000
0000
0000
0000
0000
0330
1010
0000
0010
1000
0011
1000
0010
0100
,
1001
0000
0010
0000
1001
0000
0100
0010
1001
0000
0001
1000
0101
1000
0001
0010
,
0101
0000
0010
0000
0101
0000
1001
0000
0011
0000
0010
1000
0110
1000
0010
0100
,
1001
0000
0010
0000
0101
0000
1000
0100
1010
0000
0001
0000
0110
0000
1000
0000
,
0201
0000
0000
0000
0001
0000
0001
0300
0011
0000
0010
1000
0110
1000
0010
0100
,
1001
0000
0010
0000
1001
0000
0100
0010
1001
0000
0001
1000
0101
1000
0001
0010
,
1100
0000
0010
0000
0101
0000
1001
0000
0011
0000
0010
1000
0110
1000
0010
0100
,
1001
0000
0010
0000
0101
0000
1000
0100
1010
0000
0001
0000
0110
0000
1000
0000
,
0201
0000
0000
0000
0001
0000
0001
0300
1000
0000
0100
0000
1010
0000
0001
0000
,
0010
1000
0101
0010
0001
1000
0011
0100
,
1010
0001
1010
1100
1000
0100
1010
0001
,
0010
1000
0101
0010
0101
0010
0101
1000
,
0101
0100
1010
1001
1000
0100
1010
0001
,
0010
1000
0101
0010
0100
1000
0011
0100
,
1010
0001
1010
1100
1000
0100
1010
0001
,
0010
1000
0101
0010
1100
0010
0101
1000
,
0101
0000
1001
1001
1001
0010
1000
0010
,
1000
0000
0010
0010
1000
0000
0010
0010
1000
0000
0010
0000
1001
0000
0011
0000
,
1000
0000
0110
0010
1000
0000
1100
0000
1000
0000
0001
0000
1000
0000
0001
0000
,
1000
0000
0001
0001
1000
0000
0001
0001
1000
0000
0010
0000
1001
0000
0011
0000
,
1000
0000
0010
0100
0000
0000
0020
0000
1030
0000
1001
0000
0000
0000
0001
0000
,
0000
0001
0000
0201
1300
1001
0000
0001
,
0000
0100
0000
0120
1030
0001
0000
0201
,
1300
0000
0001
0000
0000
0000
0201
0000
1300
0000
1000
0000
0011
0100
1010
0100
,
0001
1000
0110
1010
0001
0010
1200
1000
0311
0000
0010
1000
0010
1000
0010
0100
,
1001
0000
0010
0000
1001
0000
0100
0010
0001
0000
0001
1000
0101
1000
0001
0010
,
1100
0000
0010
0000
0100
0000
1000
0000
0011
0000
0010
1000
0010
1000
0010
0100
,
1001
0000
0010
0000
0101
0000
1000
0100
0010
0000
0001
0000
0110
0000
1000
0000
,
0201
0000
0000
0000
0000
0000
0000
0000
0000
0000
0000
0000
0000
0000
0300
0000
0010
0000
0010
1000
0010
1000
0010
0100
0001
0000
0010
0000
1000
0000
0100
0010
,
0010
0000
0010
1000
0010
1000
0010
0100
0001
0000
0010
0000
1000
0000
0100
0010
0010
0000
0010
1000
0010
0000
0010
1000
0010
0000
0010
1000
0010
0000
0010
1000
,
0010
0000
0010
0000
0010
0000
0010
0000
0010
0010
0010
0010
0010
0010
0010
0010
2000
0000
0000
0000
0000
0000
0000
0000
0000
0000
0000
0000
0000
0000
0000
0000
,
0001
0001
0001
0001
0001
0001
3001
0001
0000
0000
0000
0000
0020
0000
0000
0000
1031
0000
0000
0000
0001
0000
0100
0000
1001
0000
0100
0000
0010
0000
0100
0000
,
1001
0000
0010
0000
1100
0000
0100
0010
1001
0000
0001
0010
1001
0010
0001
0100
,
1010
0000
0001
0000
1010
0000
1100
0000
1010
0000
0010
0100
1010
0100
0010
0100
,
1001
0000
0010
0000
1100
0000
0100
0010
1200
0000
0302
0000
1023
0000
0230
0000
,
2321
0000
0000
0000
0100
0000
0000
0000
0001
0000
0000
0000
3130
0000
0000
0000
1110
0000
0000
0000
1110
0000
0000
0000
0000
0000
0000
0000
1000
0100
0010
0001
,
0110
0000
0000
0000
0110
0000
0000
0000
1101
0000
0000
0000
1101
0000
0000
0000
1010
0000
0000
0000
1010
0000
0000
0000
1000
0100
0010
0001
1000
0100
0010
0001
,
1110
0000
0000
0000
1110
0000
0000
0000
0101
0000
0000
0000
0101
0000
0000
0000
1110
0000
0000
0000
1110
0000
0000
0000
1000
0100
0010
0001
1000
0100
0010
0001
,
1100
0000
0000
0000
1100
0000
0000
0000
1000
0100
0010
0001
1000
0100
0010
0001
1100
0000
0000
0000
0011
0000
0000
0000
0110
0000
0000
0000
1100
0000
0000
0000
,
0212
0000
0000
0303
2002
0000
0000
0000
,
0000
0000
0000
0000
,
0000
3003
0000
0000
;
